Vk Lossless

This is similar to how Zip works, except with FLAC you will get much better compression because it is designed specifically for audio, and you can play back compressed FLAC files in your. Artist: The Simple Men Album: MMXXVII Label: Das Zeughaus Year: 2020 Genre: Metalcore Country: Germany Format: [email protected] kbps Size: 145 mb 01. Image Beautiful Suicide Girl Rika Italian Chill (25) High resolution lossless iPhone retina image in Suicide Girls album. My DnB library was entirely 320kbps until i bought a pair of Dennon AH-D7000 two weeks ago. Put it another way, if you'd like to use this professional free Spotify downloader, you need to be a member of VK. Harris attributes the band name to a movie adaptation of The Man in the Iron Mask from the novel by Alexandre Dumas, which he saw around that time, and so the group was named after the iron maiden torture device. It works not only with Spotify, but also downloads playlists from up to 3,000+ music sites like Pandora, Deezer, Tidal, Google Play Music, and so on. Black Widow 03. This changed everything. UB40 - Greatest Hits (2008) (Lossless, mp3) Year: 2008. This is similar to how Zip works, except with FLAC you will get much better compression because it is designed specifically for audio, and you can play back compressed FLAC files in your. Recent Posts [TV-SHOW] AAA – AAA 10th Anniversary SPECIAL 野外LIVE in 富士急ハイランド (2016. 0 hifi lossless 6n3 vacuum tube preamp amplifier dac sale online store at wholesale price. Ava Max - So Am I. We are established experts in crafting and delivering innovative, elegant, high performance audio video solutions. 9 % Range quality 99. 8224MHz | FLAC Tracks / 24bit / 88. One Weak 07. Genre : Jazz Release Date : 2021 Format : Flac (tracks) / Flac (tracks) Quality : 16bit – 44. Genre : Jazz Release Date : 2021 Format : Flac (tracks) / Flac (tracks) Quality : 16bit - 44. Download classical music FLAC, Hi-Res, SACD. it Lossless Vk. Originally recorded in the early 1960s and unreleased for a decade, these Cecil Taylor small group arrangements find the pianist at an intriguing stage of his musical development, encompassing the traditional post-bop jazz of “Jumpin’ Punkins” (the difference between the two versions included here is instructive), and the more radical, yet still structured approach of the title track. Nose Bleed 08. World wind social networking site. Vk lossless. Image Beautiful Suicide Girl diana015 Orange Striped Net Lossless 2K UHD iPhone Apple Retina Wallpaper (20 in Fame Girls album. 9 % Range quality 99. Try Drive for free. There are a wide range of brand-new movies, videos, music, and photos available on VK. Lossless; Hi-Res Digital Download; SACD; The Anita Kerr Singers - Mellow Moods Of Love [FLAC 24/192] January 28, 2021 Hi-Res Digital Download. Read honest and unbiased product reviews from our users. Before, listening to my HD555's, i could hear little to no difference. Artist: DJ Bounce Release name: Squirt EP 2019 Release date: 12. This changed everything. The Spotify VK Downloader, now known as Spotiload, is Chrome extension software that is linked to vk. How to find girls on social network. January 30, 2021 admin. Download music lossless FLAC. Yet who is this new femme fatale that's found her way into VK's bedroom with her girl friends? Is she trouble? Is she the body guard or girl VK has been looking for? Text (323) 309-3219 to give your take on it and receive a FREE download. Diamonds 4. Beautiful girls over here. Beautiful Sexy Suicide Girl High resolution image 36 Beatriceylenia Game of Mirrors. Đây có thể coi là chuyên trang chia sẻ kho nhạc lossless lớn nhất của Việt Nam. 2019 Label: Bass Generator Records Cat. Mike Westbrook - Love and Understanding - Citadel-Room 315 Sweden '74 (2020) [24bit FLAC]. Image Beautiful Suicide Girl Kettle Dragoneye (41) 2K lossless HQ iPhone Background image in Suicide Girls album. here on vk you can find beautiful Russian girls. Before, listening to my HD555's, i could hear little to no difference. There is a lot more information contained in a FLAC file than in an mp3. [TRI 487 CD] Genre: Gothic Metal, Gothic Rock, Darkwave Quality: FLAC | lossless (*image +. TITLE Beatport Best Sellers 2019 Indie Dance Lossless GENRE Indie Dance RELEASE DATE 2020-01-15 CHART DATE 2020-01-06 AUDIO FORMAT FLAC / AIFF / WAV Lossless 16bit / mp3 320Kbps CBR SIZE 2. Perfect Lossless Sound: Provide Great Quality SRS / WOW HD Surround Sound Wherever You Are. Aly & Fila - Rising Sun (The Remixes) (2011) #FLAC Artist: Aly & Fila Album: Rising Sun (The Remixes) Released: 2011 Показать полностью. How to Playback All Lossless Format & 24bit Lossless (NEW) How to Playback SACD ISOs (NEW) How to split & convert single-file FLAC Album into tracks; How to split & convert single-file FLAC Album into tracks (MAC OS X). TITLE Beatport Best Sellers 2019 Indie Dance Lossless GENRE Indie Dance RELEASE DATE 2020-01-15 CHART DATE 2020-01-06 AUDIO FORMAT FLAC / AIFF / WAV Lossless 16bit / mp3 320Kbps CBR SIZE 2. VK social network How to find girls on social network. However, it's not easy to download your favorite music or videos from VKontakte as VK does not offer any means for downloading. When I started this blog my intention was to help those who share my passion for music find what they've been looking for: some rare and unique pieces of music art. Vk Lossless - astraenergycorporation. Having same FPS as you have in singleplayer, you will see smooth and accurate synchronization while playing RAGE Multiplayer. Diamonds by The Birthday Massacre, released 27 March 2020 1. Main navigation Menu. Only US$139. New Jersey — четвёртый студийный альбом американской рок-группы Bon Jovi, вышедший 19 сентября 1988 года. Support MP3 / WAV / APE / WMA / FLAC etc. Yet who is this new femme fatale that's found her way into VK's bedroom with her girl friends? Is she trouble? Is she the body guard or girl VK has been looking for? Text (323) 309-3219 to give your take on it and receive a FREE download. Vk flac 24 bit. Black Widow 03. Smooth, accurate and fps-lossless. Torrent tracker with best lossless music. 08, buy best appj mini2013 6j1 6p1 vacuum tube 3w+3w lossless hifi power amplifier sale online store at wholesale price. Google Drive is a safe place for all your files. FLAC stands for Free Lossless Audio Codec, an audio format similar to MP3, but lossless, meaning that audio is compressed in FLAC without any loss in quality. it Lossless vk. Material used included lossless and high resolution FLAC, vinyl and compressed material such as Spotify, Grooveshark, internet radio and general web material. cd scans) Length: 38m 43s. Originally recorded in the early 1960s and unreleased for a decade, these Cecil Taylor small group arrangements find the pianist at an intriguing stage of his musical development, encompassing the traditional post-bop jazz of “Jumpin’ Punkins” (the difference between the two versions included here is instructive), and the more radical, yet still structured approach of the title track. Smooth, accurate and fps-lossless. 1kHz / 24bit – 48. Vk lossless. Reviews new world music. Bing helps you turn information into action, making it faster and easier to go from searching to doing. Try Drive for free. wav Peak level 96. There is a lot more information contained in a FLAC file than in an mp3. 8224MHz | FLAC Tracks / 24bit / 88. NOTE: these extras are not part of the FLAC project. com/topic-117668298_36199809 🔴 Eurodance 90s - LOSSLESS (часть 2) https://m. 1492: Conquest of Paradise is a 1992 music score to the film of the same name by Greek electronic composer and artist Vangelis. Find helpful customer reviews and review ratings for Mp3 Music Player with Bluetooth, 2017 RUIZU Portable Lossless MP3 Movies Player with FM Radio for Kids at Amazon. Vk Live On Pc. Image Beautiful Suicide Girl High resolution lossless 0 User98438 Sabin's Wrath in Suicide Girls album. January 30, 2021 admin. cc has been informing visitors about topics such as Full Album Download, Free MP3 Music Download Skull and CD Album. Đây có thể coi là chuyên trang chia sẻ kho nhạc lossless lớn nhất của Việt Nam. By rights it should as well. Download classical music FLAC, Hi-Res, SACD. Aly & Fila - Rising Sun (The Remixes) (2011) #FLAC Artist: Aly & Fila Album: Rising Sun (The Remixes) Released: 2011 Показать полностью. Lossless does sound better. Larger files than if you were to use lossy compression. Popular in Russia. Image Beautiful Fame Girl diana017 100 Orange Clothes Long Legs High Quality 2K lossless iPhone image in Fame Girls album. Migos Culture M4a Vk. We are established experts in crafting and delivering innovative, elegant, high performance audio video solutions. com/topic-117668298. ВКонтакте - универсальное средство для общения и поиска друзей и одноклассников, которым ежедневно пользуются десятки миллионов человек. Vk albums zip. January 30, 2021 admin. NSFW images are hidden by default. [TRI 487 CD] Genre: Gothic Metal, Gothic Rock, Darkwave Quality: FLAC | lossless (*image +. To change your preferred language, please choose a language using the dropdown. nonceromaistato. How to Playback All Lossless Format & 24bit Lossless (NEW) How to Playback SACD ISOs (NEW) How to split & convert single-file FLAC Album into tracks; How to split & convert single-file FLAC Album into tracks (MAC OS X). Image Beautiful Suicide Girl Kettle Dragoneye (41) 2K lossless HQ iPhone Background image in Suicide Girls album. 8224MHz | FLAC Tracks / 24bit / 88. 7 Words 05. Madonna – 13 Studio Albums + Greatest Hits Albums [LOSSLESS] Discography Februari 28, 2018. There is a lot more information contained in a FLAC file than in an mp3. Collection of symphonic and operatic works. look at her expressions!. 24 bit / 96 kHz Hi-Resolution Free FLAC Artist: Match Retour & FDS Album: Split Label: Martel En Tête Year: 2020 Genre: RAC / Oi!. 832 сообщения. Nose Bleed 08. 9 % Test CRC A3872BB5 Copy CRC A3872BB5 Copy OK No errors occurred AccurateRip summary. Advantages of Lossless image compression No loss of quality, data or information from the original image. com/topic-117668298. FLAC stands for Free Lossless Audio Codec, an audio format similar to MP3, but lossless, meaning that audio is compressed in FLAC without any loss in quality. 8224MHz | FLAC Tracks / 24bit / 88. Find helpful customer reviews and review ratings for Mp3 Music Player with Bluetooth, 2017 RUIZU Portable Lossless MP3 Movies Player with FM Radio for Kids at Amazon. ru\Koop - Coup De Grace (Best Of Koop 1997-2007)\Koop - Coup De Grace (Best Of Koop 1997-2007). Vk flac 24 bit. Discover Applian's high quality, high speed streaming video downloader, screen recorder, converter and other media tools. Various Artists - Venus The Amazing Super Audio CD Sampler Vol. Мы хотим, чтобы друзья, однокурсники, одноклассники, соседи и коллеги всегда. Reviews new world music. Lossless vk - as. Get started today. com/ please!. UB40 - Greatest Hits (2008) (Lossless, mp3) Year: 2008. Vk Download Pc. Recent Posts [TV-SHOW] AAA – AAA 10th Anniversary SPECIAL 野外LIVE in 富士急ハイランド (2016. ForthWeekend is great one, but they posts mainly Spinnin', Monstercat, Smash the House, Armada, A State of Trance and so on releases. It works not only with Spotify, but also downloads playlists from up to 3,000+ music sites like Pandora, Deezer, Tidal, Google Play Music, and so on. Popular in Russia. January 30, 2021 admin. Collection of symphonic and operatic works. Get started today. Put it another way, if you'd like to use this professional free Spotify downloader, you need to be a member of VK. However, it's not easy to download your favorite music or videos from VKontakte as VK does not offer any means for downloading. Mike Westbrook - Love and Understanding - Citadel-Room 315 Sweden '74 (2020) [24bit FLAC]. If you want to see them in your image feed, login to your account and enable it in settings. Spotify VK Downloader - What Is It. cd scans) Length: 38m 43s. 08, buy best appj mini2013 6j1 6p1 vacuum tube 3w+3w lossless hifi power amplifier sale online store at wholesale price. Vk flac 24 bit. Lossless Vk - oyly. And so Freedom of Sound was created! I spent 4 days to look through all posts from ForthWeekend to look for some hardstyle and hardcore tracks in lossless quality. 1 record > WAV > FLAC. LossLess / Hi Res Sort by По умолчанию Название А-Z Название Z-A Старые Новые Худший рейтинг Лучший рейтинг VA — Verve & Blue Note Today 2020 (Lossless, 2020). the style and direction of the loaded material is Eurodance Italodance 90s. ru\Koop - Coup De Grace (Best Of Koop 1997-2007)\Koop - Coup De Grace (Best Of Koop 1997-2007). VK social network How to find girls on social network. Yet who is this new femme fatale that's found her way into VK's bedroom with her girl friends? Is she trouble? Is she the body guard or girl VK has been looking for? Text (323) 309-3219 to give your take on it and receive a FREE download. miaolai a2 ess9023 bluetooth 5. Smooth, accurate and fps-lossless. Image Beautiful Suicide Girl High resolution lossless 0 User98438 Sabin's Wrath in Suicide Girls album. Image Beautiful Suicide Girl Tchabada The Waiting Room (1) HQ iPhone 2K Retina lossless image in Suicide Girls album. Artist: Various Artists Album: White Pride World Wide (LP, Remastered) Label: none Year: 2020 Genre: RAC Country: USA / Germany / Canada / Poland / Sweden Format: [email protected] kbps Size: 130 mb. Aedle VK-1 Sound Quality I’m fairly sure that the VK-1’s arrived run in as there was no change in performance over the time that they were used on review. cc has been informing visitors about topics such as Full Album Download, Free MP3 Music Download Skull and CD Album. Download music lossless FLAC. 08, buy best appj mini2013 6j1 6p1 vacuum tube 3w+3w lossless hifi power amplifier sale online store at wholesale price. Image Beautiful Suicide Girl Rika Italian Chill (25) High resolution lossless iPhone retina image in Suicide Girls album. And so Freedom of Sound was created! I spent 4 days to look through all posts from ForthWeekend to look for some hardstyle and hardcore tracks in lossless quality. This is similar to how Zip works, except with FLAC you will get much better compression because it is designed specifically for audio, and you can play back compressed FLAC files in your. Europe Awake. Image Beautiful Fame Girl diana017 100 Orange Clothes Long Legs High Quality 2K lossless iPhone image in Fame Girls album. There is a lot more information contained in a FLAC file than in an mp3. Yet who is this new femme fatale that's found her way into VK's bedroom with her girl friends? Is she trouble? Is she the body guard or girl VK has been looking for? Text (323) 309-3219 to give your take on it and receive a FREE download. Spotify VK Downloader - What Is It. The Anita Kerr Singers – Mellow Moods Of Love [FLAC 24/192]. LosslessClub. It works not only with Spotify, but also downloads playlists from up to 3,000+ music sites like Pandora, Deezer, Tidal, Google Play Music, and so on. LossLess / Hi Res Sort by По умолчанию Название А-Z Название Z-A Старые Новые Худший рейтинг Лучший рейтинг VA — Verve & Blue Note Today 2020 (Lossless, 2020). ⏩ Fu Vk ⚡ Free Music Listen Download MP3, Lossless 【 TOP MUSIC 】 Muzbeat. Die Nanie 02. 8224MHz | FLAC Tracks / 24bit / 88. ВКонтакте – универсальное средство для общения и поиска друзей и одноклассников, которым ежедневно пользуются десятки миллионов человек. 27) (BDRIP) [Single] fromis 9 – FUN FACTORY [FLAC / 24bit Lossless / WEB] [2019. The Sky Will Turn 3. Migos Culture M4a Vk. Material used included lossless and high resolution FLAC, vinyl and compressed material such as Spotify, Grooveshark, internet radio and general web material. Image Beautiful Fame Girl diana017 100 Orange Clothes Long Legs High Quality 2K lossless iPhone image in Fame Girls album. January 30, 2021 admin. Vk lossless. Aly & Fila - Rising Sun (The Remixes) (2011) #FLAC Artist: Aly & Fila Album: Rising Sun (The Remixes) Released: 2011 Показать полностью. My DnB library was entirely 320kbps until i bought a pair of Dennon AH-D7000 two weeks ago. NSFW images are hidden by default. miaolai a2 ess9023 bluetooth 5. it Lossless vk. The Animals - The Animals (1964/2013/2016) [FLAC 24/96]. FLAC stands for Free Lossless Audio Codec, an audio format similar to MP3, but lossless, meaning that audio is compressed in FLAC without any loss in quality. Diamonds 4. Ava Max - So Am I. Quality: lossless Covers: Complete set (600 dpi) Amount of tracks: 12 Size RAR: ~ 414. [TRI 487 CD] Genre: Gothic Metal, Gothic Rock, Darkwave Quality: FLAC | lossless (*image +. Hi-Res FLAC. please just comment and subcribe after allvisit http://road2save. here on vk you can find beautiful Russian girls. JarFile Modifier and Type Constant Field Value; public static final int: CENATT: 36: public static final int: CENATX: 38: public static final int: CENCOM. FLAC stands for Free Lossless Audio Codec, an audio format similar to MP3, but lossless, meaning that audio is compressed in FLAC without any loss in quality. Image Beautiful Suicide Girl High resolution lossless 0 User98438 Sabin's Wrath in Suicide Girls album. Best for large-scale printing purposes. ru\Koop - Coup De Grace (Best Of Koop 1997-2007)\Koop - Coup De Grace (Best Of Koop 1997-2007). We are established experts in crafting and delivering innovative, elegant, high performance audio video solutions. Vk albums zip. Tải nhạc tại địa chỉ www. Artist: Various Artists Album: White Pride World Wide (LP, Remastered) Label: none Year: 2020 Genre: RAC Country: USA / Germany / Canada / Poland / Sweden Format: [email protected] kbps Size: 130 mb. Aly & Fila - Rising Sun (The Remixes) (2011) #FLAC Artist: Aly & Fila Album: Rising Sun (The Remixes) Released: 2011 Показать полностью. Nose Bleed 08. Before, listening to my HD555's, i could hear little to no difference. There are a wide range of brand-new movies, videos, music, and photos available on VK. 27) (BDRIP) [Single] fromis 9 – FUN FACTORY [FLAC / 24bit Lossless / WEB] [2019. ВКонтакте – универсальное средство для общения и поиска друзей и одноклассников, которым ежедневно пользуются десятки миллионов человек. Lossless & Hi-Res Music Download. Get started today. autoscuolasp. Verb T & Illinformed - The Land Of The Foggy Skies (2020) [FLAC] Tagged Hip-Hop, Verb T & Illinformed Discover. 1kHz / 24bit - 48. Eurodance 90s - LOSSLESS (часть 2) Eurodance 90s - MP3 - LOSSLESS. This changed everything. KeepVid Music (Windows & Mac) KeepVid Music, also known as iMusic, is a complete streaming music downloader. There are a wide range of brand-new movies, videos, music, and photos available on VK. 7 Words 05. A large collection of albums and collections of different genres of high quality lossless стр. The film, a recount of the voyage to America in 1492 by Christopher Columbus, was directed by Ridley Scott, for whom Vangelis had previously composed the music score for Blade Runner, in 1982. By rights it should as well. (Synth-Pop/N ew Wave) [CD] Icehouse - Icehouse [Chrysalis, VK 41350, USA] - 1981, FLAC (tracks+. Recent Posts [TV-SHOW] AAA – AAA 10th Anniversary SPECIAL 野外LIVE in 富士急ハイランド (2016. How to find girls on social network. Image Beautiful Girl Alex Arabella AAR094 001 Black dress long legs dress suggestion 2K lossless image (36 in Fame Girls album. And so Freedom of Sound was created! I spent 4 days to look through all posts from ForthWeekend to look for some hardstyle and hardcore tracks in lossless quality. [TRI 487 CD] Genre: Gothic Metal, Gothic Rock, Darkwave Quality: FLAC | lossless (*image +. miaolai a2 ess9023 bluetooth 5. cue), lossless. Artist: Various Artists Album: Sport Frei 88 Label: unofficial release Year: 2020 Genre: RAC Country: Germany Format: [email protected] kbps Size: 88 mb Scans: yes Artist: Various Artists Album:. January 30, 2021 admin. look at her expressions!. ru\Koop - Coup De Grace (Best Of Koop 1997-2007)\Koop - Coup De Grace (Best Of Koop 1997-2007). JarFile Modifier and Type Constant Field Value; public static final int: CENATT: 36: public static final int: CENATX: 38: public static final int: CENCOM. It will allow you to download Spotify songs and playlists so that you can listen to the music even offline. Vk flac 24 bit. Main navigation Menu. Having same FPS as you have in singleplayer, you will see smooth and accurate synchronization while playing RAGE Multiplayer. 08, buy best appj mini2013 6j1 6p1 vacuum tube 3w+3w lossless hifi power amplifier sale online store at wholesale price. Before, listening to my HD555's, i could hear little to no difference. autoscuolasp. NSFW images are hidden by default. VK social network How to find girls on social network. Vk albums zip. 9 % Range quality 99. The film, a recount of the voyage to America in 1492 by Christopher Columbus, was directed by Ridley Scott, for whom Vangelis had previously composed the music score for Blade Runner, in 1982. Lossless Audio || Coffee High End Music 2019 || TT Audiophile Music -----. New Jersey — четвёртый студийный альбом американской рок-группы Bon Jovi, вышедший 19 сентября 1988 года. Popular in Russia. Ava Max - So Am I. This changed everything. look at her expressions!. MJ Cole – MJ Cole. And so Freedom of Sound was created! I spent 4 days to look through all posts from ForthWeekend to look for some hardstyle and hardcore tracks in lossless quality. A Premium subscription allows you to enjoy additional benefits to the free service that Rapidgator offers. wav Peak level 96. January 30, 2021 admin. (Pop) [CD] Eros Ramazzotti - Vita Ce N’ È - 2018, FLAC (tracks+. 2019 Label: Bass Generator Records Cat. How to Playback All Lossless Format & 24bit Lossless (NEW) How to Playback SACD ISOs (NEW) How to split & convert single-file FLAC Album into tracks; How to split & convert single-file FLAC Album into tracks (MAC OS X). ВКонтакте - универсальное средство для общения и поиска друзей и одноклассников, которым ежедневно пользуются десятки миллионов человек. There is a lot more information contained in a FLAC file than in an mp3. it Lossless Vk. Genre : Jazz Release Date : 2021 Format : Flac (tracks) / Flac (tracks) Quality : 16bit – 44. Beautiful girls over here. Recent Posts [TV-SHOW] AAA – AAA 10th Anniversary SPECIAL 野外LIVE in 富士急ハイランド (2016. KeepVid Music (Windows & Mac) KeepVid Music, also known as iMusic, is a complete streaming music downloader. Try Drive for free. FLAC, 2019 Format : FLAC Format/Info : Free Lossless Audio Codec File size : 39. here on vk you can find beautiful Russian girls. Hi-Res FLAC. Veruca Salt – Resolver (2000) [FLAC] Tagged Rock, Veruca Salt Discover. HDtracks albums of all music genres and styles. Lossless does sound better. Aly & Fila - Rising Sun (The Remixes) (2011) #FLAC Artist: Aly & Fila Album: Rising Sun (The Remixes) Released: 2011 Показать полностью. Join thousands of satisfied visitors who discovered Zip Rar, Zip Files for Free and Beyonce New Album. Various Artists – Venus The Amazing Super Audio CD Sampler Vol. the style and direction of the loaded material is Eurodance Italodance 90s. LosslessClub. 1 record > WAV > FLAC. Artist: DJ Bounce Release name: Squirt EP 2019 Release date: 12. Discover Applian's high quality, high speed streaming video downloader, screen recorder, converter and other media tools. cue), lossless Страницы: 1 Популярная музыка » Зарубежная поп-музыка » Итальянская поп-музыка (lossless). The Anita Kerr Singers – Mellow Moods Of Love [FLAC 24/192]. Originally recorded in the early 1960s and unreleased for a decade, these Cecil Taylor small group arrangements find the pianist at an intriguing stage of his musical development, encompassing the traditional post-bop jazz of “Jumpin’ Punkins” (the difference between the two versions included here is instructive), and the more radical, yet still structured approach of the title track. dating site. A large collection of albums and collections of different genres of high quality lossless стр. LossLess / Hi Res Sort by По умолчанию Название А-Z Название Z-A Старые Новые Худший рейтинг Лучший рейтинг VA — Verve & Blue Note Today 2020 (Lossless, 2020). NOTE: these extras are not part of the FLAC project. Tải nhạc tại địa chỉ www. ru\Koop - Coup De Grace (Best Of Koop 1997-2007)\Koop - Coup De Grace (Best Of Koop 1997-2007). VK's Bad Girls INFLUENCE! Who is this bad ass girl that VK claims as his new bodyguard, but he's seen kissing all over the place?. How to Playback All Lossless Format & 24bit Lossless (NEW) How to Playback SACD ISOs (NEW) How to split & convert single-file FLAC Album into tracks; How to split & convert single-file FLAC Album into tracks (MAC OS X). There are a wide range of brand-new movies, videos, music, and photos available on VK. com/topic-117668298. Download music lossless FLAC. Lossless vk - as. By rights it should as well. Vk albums zip. com/topic-117668298_36199809 🔴 Eurodance 90s - LOSSLESS (часть 2) https://m. Beautiful Suicide Girl lossless image 27 Satin You Are Yorn Own Beautiful. com/topic-117668298_36199809 🔴 Eurodance 90s - LOSSLESS (часть 2) https://m. Various Artists - Venus The Amazing Super Audio CD Sampler Vol. Put it another way, if you'd like to use this professional free Spotify downloader, you need to be a member of VK. 8224MHz | FLAC Tracks / 24bit / 88. dating site. Die Nanie 02. Originally recorded in the early 1960s and unreleased for a decade, these Cecil Taylor small group arrangements find the pianist at an intriguing stage of his musical development, encompassing the traditional post-bop jazz of “Jumpin’ Punkins” (the difference between the two versions included here is instructive), and the more radical, yet still structured approach of the title track. Google Drive is a safe place for all your files. Iron Maiden was formed on Christmas Day 1975, by bassist Steve Harris, shortly after he left his previous group, Smiler. Topic with loaded music. Image Beautiful Suicide Girl High resolution lossless 0 User98438 Sabin's Wrath in Suicide Girls album. Vk lossless. Fist Year: 1995 Format: FLAC Source: Tape > Kenwood Deck > PC line-in > Cool Edict Pro 2. Quality: lossless Covers: Complete set (600 dpi) Amount of tracks: 12 Size RAR: ~ 414. Vk Download Pc. Artist: Folterkammer Album: Die Lederpredigt Label: Gilead Media Year: 2020 Genre: Black Metal Country: USA / Switzerland Format: [email protected] kbps Size: 89 mb 01. KeepVid Music (Windows & Mac) KeepVid Music, also known as iMusic, is a complete streaming music downloader. Davai Myasa vk Cute little Russian girl asked to describe different types of people. LosslessClub. Image Beautiful Girl Alex Arabella AAR094 001 Black dress long legs dress suggestion 2K lossless image (36 in Fame Girls album. WAV hay Lossless? Cập nhập link download mới liên tục ở cuối bài viết nhé các bác! Có tất cả 4 phương thức tải nhạc WAV và Lossless sau đây 1. And so Freedom of Sound was created! I spent 4 days to look through all posts from ForthWeekend to look for some hardstyle and hardcore tracks in lossless quality. Bing helps you turn information into action, making it faster and easier to go from searching to doing. Having same FPS as you have in singleplayer, you will see smooth and accurate synchronization while playing RAGE Multiplayer. Lossless & Hi-Res Music Download. Lossless does sound better. 9 % Test CRC A3872BB5 Copy CRC A3872BB5 Copy OK No errors occurred AccurateRip summary. 1kHz / 24bit - 48. HDtracks albums of all music genres and styles. The Spotify VK Downloader, now known as Spotiload, is Chrome extension software that is linked to vk. 9 % Range quality 99. 7 Words 05. Download classical music FLAC, Hi-Res, SACD. Quality: lossless Covers: Complete set (600 dpi) Amount of tracks: 12 Size RAR: ~ 414. Topic with loaded music. ⏩ Fu Vk ⚡ Free Music Listen Download MP3, Lossless 【 TOP MUSIC 】 Muzbeat. Verb T & Illinformed - The Land Of The Foggy Skies (2020) [FLAC] Tagged Hip-Hop, Verb T & Illinformed Discover. dating site. It will allow you to download Spotify songs and playlists so that you can listen to the music even offline. By rights it should as well. Most (except those marked [$]) are freely available but distributed under their authors' own terms. The Jimi Hendrix Experience – Are You Experienced? (1967) [2020, Remastered, Hi-Res SACD Rip] SACD Rip | ISO / DSD / 1bit / 2. Veruca Salt – Resolver (2000) [FLAC] Tagged Rock, Veruca Salt Discover. LosslessClub. Read honest and unbiased product reviews from our users. dating site. The archive of our site contains a collection of quality lossless music, the best flac music of various genres in flac, ape, wav format, which you can download for free and without registration. Various Artists - Venus The Amazing Super Audio CD Sampler Vol. Image Beautiful Suicide Girl diana015 Orange Striped Net Lossless 2K UHD iPhone Apple Retina Wallpaper (20 in Fame Girls album. com - торрент трекер c лучшей музыкой в lossless качестве. Lossless does sound better. 8224MHz | FLAC Tracks / 24bit / 88. Vk lossless. di Februari 28, 2018 4 komentar: Kirimkan Ini lewat Email BlogThis!. Smallest reduction in file size, therefore need large digital storages. [TRI 487 CD] Genre: Gothic Metal, Gothic Rock, Darkwave Quality: FLAC | lossless (*image +. NOTE: these extras are not part of the FLAC project. Music lossless for lovers of good sound On our site you can download lossless music for free and without registration, favorite performers in flac format, for fans to listen to vinyl digitization - Vinyl rip, gourmets of the music world who want to listen to multi-channel music are offered - Audio-DVD, SACD, DTS 5. January 30, 2021 admin. Multi-Function: Supports Music Play, FM radio, Voice Recording, File Browsing, Video, Calendar and E-book Reading (Support Txt Format Only). Aedle VK-1 Sound Quality I’m fairly sure that the VK-1’s arrived run in as there was no change in performance over the time that they were used on review. cd scans) Length: 38m 43s. Vk lossless. Genre : Jazz Release Date : 2021 Format : Flac (tracks) / Flac (tracks) Quality : 16bit – 44. January 30, 2021 admin. HDtracks albums of all music genres and styles. com/topic-117668298_36199809 🔴 Eurodance 90s - LOSSLESS (часть 2) https://m. A large collection of albums and collections of different genres of high quality lossless стр. Smooth, accurate and fps-lossless. Die Hymne. Diamonds 4. Download music lossless FLAC. MJ Cole – MJ Cole. Check out the links page for an even larger list of software supporting FLAC. 1kHz / 24bit – 48. How to Playback All Lossless Format & 24bit Lossless (NEW) How to Playback SACD ISOs (NEW) How to split & convert single-file FLAC Album into tracks; How to split & convert single-file FLAC Album into tracks (MAC OS X). This changed everything. Spotify VK Downloader - What Is It. FLAC, 2019 Format : FLAC Format/Info : Free Lossless Audio Codec File size : 39. (Pop) [CD] Eros Ramazzotti - Vita Ce N’ È - 2018, FLAC (tracks+. Only US$139. ru\Koop - Coup De Grace (Best Of Koop 1997-2007)\Koop - Coup De Grace (Best Of Koop 1997-2007). Flac Vk Flac Vk. Beautiful Suicide Girl lossless image 27 Satin You Are Yorn Own Beautiful. look at her expressions!. cd scans) Length: 38m 43s. Aly & Fila - Rising Sun (The Remixes) (2011) #FLAC Artist: Aly & Fila Album: Rising Sun (The Remixes) Released: 2011 Показать полностью. wav Peak level 96. Flac Vk Flac Vk. HDtracks albums of all music genres and styles. And so Freedom of Sound was created! I spent 4 days to look through all posts from ForthWeekend to look for some hardstyle and hardcore tracks in lossless quality. Artist: Suzi Quatro Title Of Album: Rock Hard Location: United States Label: Karussell (843 706-2) Genre: Hard Rock Quality: FLAC (image. here on vk you can find beautiful Russian girls. (Pop) [CD] Eros Ramazzotti - Vita Ce N’ È - 2018, FLAC (tracks+. 9 % Range quality 99. Die Hymne. Smooth, accurate and fps-lossless. Альбом попал на 1 место Billboard 200. Davai Myasa vk Cute little Russian girl asked to describe different types of people. ForthWeekend is great one, but they posts mainly Spinnin', Monstercat, Smash the House, Armada, A State of Trance and so on releases. 1 record > WAV > FLAC. If you want to see them in your image feed, login to your account and enable it in settings. One Weak 07. com/topic-117668298_36199809 🔴 Eurodance 90s - LOSSLESS (часть 2) https://m. The Spotify VK Downloader, now known as Spotiload, is Chrome extension software that is linked to vk. NSFW images are hidden by default. 8224MHz | FLAC Tracks / 24bit / 88. Image Beautiful Suicide Girl High resolution lossless 0 User98438 Sabin's Wrath in Suicide Girls album. ru\Koop - Coup De Grace (Best Of Koop 1997-2007)\Koop - Coup De Grace (Best Of Koop 1997-2007). Lossless Beautiful Fame Girls image Collection. 832 сообщения. cc has been informing visitors about topics such as Full Album Download, Free MP3 Music Download Skull and CD Album. Image Beautiful Suicide Girl Rika Italian Chill (25) High resolution lossless iPhone retina image in Suicide Girls album. The film, a recount of the voyage to America in 1492 by Christopher Columbus, was directed by Ridley Scott, for whom Vangelis had previously composed the music score for Blade Runner, in 1982. LossLess / Hi Res Sort by По умолчанию Название А-Z Название Z-A Старые Новые Худший рейтинг Лучший рейтинг VA — Verve & Blue Note Today 2020 (Lossless, 2020). (Pop) [CD] Eros Ramazzotti - Vita Ce N’ È - 2018, FLAC (tracks+. Last Goodbye 7. 40, buy best pj. Mike Westbrook - Love and Understanding - Citadel-Room 315 Sweden '74 (2020) [24bit FLAC]. And so Freedom of Sound was created! I spent 4 days to look through all posts from ForthWeekend to look for some hardstyle and hardcore tracks in lossless quality. Aly & Fila - Rising Sun (The Remixes) (2011) #FLAC Artist: Aly & Fila Album: Rising Sun (The Remixes) Released: 2011 Показать полностью. Collection of symphonic and operatic works. Music lossless for lovers of good sound On our site you can download lossless music for free and without registration, favorite performers in flac format, for fans to listen to vinyl digitization - Vinyl rip, gourmets of the music world who want to listen to multi-channel music are offered - Audio-DVD, SACD, DTS 5. Advantages of Lossless image compression No loss of quality, data or information from the original image. What is a subscription and what is it for? A. 9 % Test CRC A3872BB5 Copy CRC A3872BB5 Copy OK No errors occurred AccurateRip summary. wav Peak level 96. it Lossless vk. LossLess / Hi Res Sort by По умолчанию Название А-Z Название Z-A Старые Новые Худший рейтинг Лучший рейтинг VA — Verve & Blue Note Today 2020 (Lossless, 2020). Мы хотим, чтобы друзья, однокурсники, одноклассники, соседи и коллеги всегда. Artist: Various Artists Album: Sport Frei 88 Label: unofficial release Year: 2020 Genre: RAC Country: Germany Format: [email protected] kbps Size: 88 mb Scans: yes Artist: Various Artists Album:. Music lossless for lovers of good sound On our site you can download lossless music for free and without registration, favorite performers in flac format, for fans to listen to vinyl digitization - Vinyl rip, gourmets of the music world who want to listen to multi-channel music are offered - Audio-DVD, SACD, DTS 5. Download FLAC Ultravox - Rage In Eden (VK 41338) 1981 lossless CD, MP3, online music, streaming, high resolution music. TITLE Beatport Best Sellers 2019 Indie Dance Lossless GENRE Indie Dance RELEASE DATE 2020-01-15 CHART DATE 2020-01-06 AUDIO FORMAT FLAC / AIFF / WAV Lossless 16bit / mp3 320Kbps CBR SIZE 2. Popular in Russia. There is a lot more information contained in a FLAC file than in an mp3. 🔴 Eurodance 90s - LOSSLESS (часть 1) https://m. This changed everything. ВКонтакте – универсальное средство для общения и поиска друзей и одноклассников, которым ежедневно пользуются десятки миллионов человек. Billy Joel - 8 Albums (1973-1983) {MFSL Remastered, CD-Layer & Hi-Res SACD Rip} EAC Rip | 8xCD | FLAC Image + Cue + Log | Full Scans Included PS3 SACD Rip. please just comment and subcribe after allvisit http://road2save. And so Freedom of Sound was created! I spent 4 days to look through all posts from ForthWeekend to look for some hardstyle and hardcore tracks in lossless quality. (Pop) [CD] Eros Ramazzotti - Vita Ce N’ È - 2018, FLAC (tracks+. ForthWeekend is great one, but they posts mainly Spinnin', Monstercat, Smash the House, Armada, A State of Trance and so on releases. Spotify VK Downloader - What Is It. Bing helps you turn information into action, making it faster and easier to go from searching to doing. (Synth-Pop/N ew Wave) [CD] Icehouse - Icehouse [Chrysalis, VK 41350, USA] - 1981, FLAC (tracks+. How to Playback All Lossless Format & 24bit Lossless (NEW) How to Playback SACD ISOs (NEW) How to split & convert single-file FLAC Album into tracks; How to split & convert single-file FLAC Album into tracks (MAC OS X). 8224MHz | FLAC Tracks / 24bit / 88. There are a wide range of brand-new movies, videos, music, and photos available on VK. Aly & Fila - Rising Sun (The Remixes) (2011) #FLAC Artist: Aly & Fila Album: Rising Sun (The Remixes) Released: 2011 Показать полностью. Disadvantages of Lossless image compression. Discover Applian's high quality, high speed streaming video downloader, screen recorder, converter and other media tools. Rap Albums Vk. ВКонтакте – универсальное средство для общения и поиска друзей и одноклассников, которым ежедневно пользуются десятки миллионов человек. It works not only with Spotify, but also downloads playlists from up to 3,000+ music sites like Pandora, Deezer, Tidal, Google Play Music, and so on. NSFW images are hidden by default. Veruca Salt – Resolver (2000) [FLAC] Tagged Rock, Veruca Salt Discover. Music lossless for lovers of good sound On our site you can download lossless music for free and without registration, favorite performers in flac format, for fans to listen to vinyl digitization - Vinyl rip, gourmets of the music world who want to listen to multi-channel music are offered - Audio-DVD, SACD, DTS 5. The site is dedicated to lossless flac music. The Spotify VK Downloader, now known as Spotiload, is Chrome extension software that is linked to vk. Discover Applian's high quality, high speed streaming video downloader, screen recorder, converter and other media tools. HDtracks albums of all music genres and styles. com - торрент трекер c лучшей музыкой в lossless качестве. Join thousands of satisfied visitors who discovered Zip Rar, Zip Files for Free and Beyonce New Album. January 30, 2021 admin. Lossless & Hi-Res Music Download. Lossless Beautiful Fame Girls image Collection. 9 % Range quality 99. UB40 - Greatest Hits (2008) (Lossless, mp3) Year: 2008. com/topic-117668298_36199809 🔴 Eurodance 90s - LOSSLESS (часть 2) https://m. NSFW images are hidden by default. ВКонтакте – универсальное средство для общения и поиска друзей и одноклассников, которым ежедневно пользуются десятки миллионов человек. com/topic-117668298. Artist: Mantus Title Of Album: Роrtrаit аus Wut und Тrаuеr + Grеnzlаnd [2СD] Release Date: 2014 Location: Germany Label: Trisol Music Group GmbH. Vk Download Pc. Image Beautiful Suicide Girl Tchabada The Waiting Room (1) HQ iPhone 2K Retina lossless image in Suicide Girls album. This is similar to how Zip works, except with FLAC you will get much better compression because it is designed specifically for audio, and you can play back compressed FLAC files in your. Harris attributes the band name to a movie adaptation of The Man in the Iron Mask from the novel by Alexandre Dumas, which he saw around that time, and so the group was named after the iron maiden torture device. Мы хотим, чтобы друзья, однокурсники, одноклассники, соседи и коллеги всегда. JarFile Modifier and Type Constant Field Value; public static final int: CENATT: 36: public static final int: CENATX: 38: public static final int: CENCOM. 27) (BDRIP) [Single] fromis 9 – FUN FACTORY [FLAC / 24bit Lossless / WEB] [2019. com - торрент трекер c лучшей музыкой в lossless качестве. VK's Bad Girls INFLUENCE! Who is this bad ass girl that VK claims as his new bodyguard, but he's seen kissing all over the place?. ВКонтакте – универсальное средство для общения и поиска друзей и одноклассников, которым ежедневно пользуются десятки миллионов человек. LossLess / Hi Res Sort by По умолчанию Название А-Z Название Z-A Старые Новые Худший рейтинг Лучший рейтинг VA — Verve & Blue Note Today 2020 (Lossless, 2020). Filename E:\tvixhd1\lossless-room. Eurodance 90s - LOSSLESS (часть 2) Eurodance 90s - MP3 - LOSSLESS. By rights it should as well. Flac Vk Flac Vk. Bing helps you turn information into action, making it faster and easier to go from searching to doing. 2 MiB Duration : 3 min 4 s Overall bit rate mode : Variable. 8224MHz | FLAC Tracks / 24bit / 88. Torrent tracker with best lossless music. Die Hymne. How to find girls on social network. Diamonds by The Birthday Massacre, released 27 March 2020 1. There is a lot more information contained in a FLAC file than in an mp3. This changed everything. Reviews new world music. [TRI 487 CD] Genre: Gothic Metal, Gothic Rock, Darkwave Quality: FLAC | lossless (*image +. There are a wide range of brand-new movies, videos, music, and photos available on VK. Collection of symphonic and operatic works. 1 record > WAV > FLAC. nonceromaistato. (Synth-Pop/N ew Wave) [CD] Icehouse - Icehouse [Chrysalis, VK 41350, USA] - 1981, FLAC (tracks+. Various Artists – Venus The Amazing Super Audio CD Sampler Vol. Multi-Function: Supports Music Play, FM radio, Voice Recording, File Browsing, Video, Calendar and E-book Reading (Support Txt Format Only). This changed everything. cue,log, covers) Length: 64:01 + 48:27 min Tracks: 14 + 12 Total Size: 789 Mb (+3%) WebSite: Official Homepage. 2 MiB Duration : 3 min 4 s Overall bit rate mode : Variable. VK social network How to find girls on social network. My DnB library was entirely 320kbps until i bought a pair of Dennon AH-D7000 two weeks ago. This is similar to how Zip works, except with FLAC you will get much better compression because it is designed specifically for audio, and you can play back compressed FLAC files in your. 8224MHz | FLAC Tracks / 24bit / 88. World wind social networking site. Hello! We have detected English as your language preference. Before, listening to my HD555's, i could hear little to no difference. Larger files than if you were to use lossy compression. Disadvantages of Lossless image compression. Artist: Mantus Title Of Album: Роrtrаit аus Wut und Тrаuеr + Grеnzlаnd [2СD] Release Date: 2014 Location: Germany Label: Trisol Music Group GmbH. Harris attributes the band name to a movie adaptation of The Man in the Iron Mask from the novel by Alexandre Dumas, which he saw around that time, and so the group was named after the iron maiden torture device. Spotiload was also known as Spotify VK Downloader, which is a free Google Chrome extension and well-designed for VK users to download and listen to Spotify music and playlists offline on their players. It will allow you to download Spotify songs and playlists so that you can listen to the music even offline. ru\Koop - Coup De Grace (Best Of Koop 1997-2007)\Koop - Coup De Grace (Best Of Koop 1997-2007). it Lossless Vk. Aedle VK-1 Sound Quality I’m fairly sure that the VK-1’s arrived run in as there was no change in performance over the time that they were used on review. SeductionCoaching. Lossless Vk - oyly. Davai Myasa vk Cute little Russian girl asked to describe different types of people. Before, listening to my HD555's, i could hear little to no difference. One Weak 07. 40, buy best pj. it Vk Lossless. Recent Posts [TV-SHOW] AAA – AAA 10th Anniversary SPECIAL 野外LIVE in 富士急ハイランド (2016. ForthWeekend is great one, but they posts mainly Spinnin', Monstercat, Smash the House, Armada, A State of Trance and so on releases. 24 bit / 96 kHz Hi-Resolution Free FLAC Artist: Match Retour & FDS Album: Split Label: Martel En Tête Year: 2020 Genre: RAC / Oi!. January 30, 2021 admin. Last Goodbye 7. autoscuolasp. ru\Koop - Coup De Grace (Best Of Koop 1997-2007)\Koop - Coup De Grace (Best Of Koop 1997-2007). Diamonds by The Birthday Massacre, released 27 March 2020 1. SeductionCoaching. NOTE: these extras are not part of the FLAC project. Artist: Mantus Title Of Album: Роrtrаit аus Wut und Тrаuеr + Grеnzlаnd [2СD] Release Date: 2014 Location: Germany Label: Trisol Music Group GmbH. 27) (BDRIP) [Single] fromis 9 – FUN FACTORY [FLAC / 24bit Lossless / WEB] [2019. Topic with loaded music. Lossless & Hi-Res Music Download. Black Widow 03. HDtracks albums of all music genres and styles. Vk albums zip. Music lossless for lovers of good sound On our site you can download lossless music for free and without registration, favorite performers in flac format, for fans to listen to vinyl digitization - Vinyl rip, gourmets of the music world who want to listen to multi-channel music are offered - Audio-DVD, SACD, DTS 5. 8224MHz | FLAC Tracks / 24bit / 88. Migos Culture M4a Vk. Multi-Function: Supports Music Play, FM radio, Voice Recording, File Browsing, Video, Calendar and E-book Reading (Support Txt Format Only). A large collection of albums and collections of different genres of high quality lossless стр. LosslessClub. Filename E:\tvixhd1\lossless-room. Various Artists - Venus The Amazing Super Audio CD Sampler Vol. We are established experts in crafting and delivering innovative, elegant, high performance audio video solutions. Artist: Mantus Title Of Album: Роrtrаit аus Wut und Тrаuеr + Grеnzlаnd [2СD] Release Date: 2014 Location: Germany Label: Trisol Music Group GmbH. Before, listening to my HD555's, i could hear little to no difference. How to Playback All Lossless Format & 24bit Lossless (NEW) How to Playback SACD ISOs (NEW) How to split & convert single-file FLAC Album into tracks; How to split & convert single-file FLAC Album into tracks (MAC OS X). Artist: Various Artists Album: Sport Frei 88 Label: unofficial release Year: 2020 Genre: RAC Country: Germany Format: [email protected] kbps Size: 88 mb Scans: yes Artist: Various Artists Album:. 16 (2016) [Hi-Res SACD Rip] SACD Rip | ISO / DSD / 1bit / 2. January 30, 2021 admin. Disadvantages of Lossless image compression. On vk easily you can access easily singup. By rights it should as well. cc has been informing visitors about topics such as Full Album Download, Free MP3 Music Download Skull and CD Album. Join thousands of satisfied visitors who discovered Zip Rar, Zip Files for Free and Beyonce New Album. And so Freedom of Sound was created! I spent 4 days to look through all posts from ForthWeekend to look for some hardstyle and hardcore tracks in lossless quality. Lossless Vk - oyly. To change your preferred language, please choose a language using the dropdown. Flac Vk Flac Vk. Black Widow 03. Download music lossless FLAC. dating site. Image Beautiful Suicide Girl Kettle Dragoneye (41) 2K lossless HQ iPhone Background image in Suicide Girls album. The Spotify VK Downloader, now known as Spotiload, is Chrome extension software that is linked to vk. 1492: Conquest of Paradise is a 1992 music score to the film of the same name by Greek electronic composer and artist Vangelis. NSFW images are hidden by default. Migos Culture M4a Vk. cue,log, covers) Length: 64:01 + 48:27 min Tracks: 14 + 12 Total Size: 789 Mb (+3%) WebSite: Official Homepage. it Vk Lossless. If you want to see them in your image feed, login to your account and enable it in settings. KeepVid Music (Windows & Mac) KeepVid Music, also known as iMusic, is a complete streaming music downloader. Veruca Salt – Resolver (2000) [FLAC] Tagged Rock, Veruca Salt Discover. There is a lot more information contained in a FLAC file than in an mp3. miaolai a2 ess9023 bluetooth 5. One Weak 07. FLAC, 2019 Format : FLAC Format/Info : Free Lossless Audio Codec File size : 39. Spotiload was also known as Spotify VK Downloader, which is a free Google Chrome extension and well-designed for VK users to download and listen to Spotify music and playlists offline on their players. This changed everything. wav Peak level 96. Only US$139.